Reply To: About the Kontakt issue…

Home Forums Pianobook About the Kontakt issue… Reply To: About the Kontakt issue…

#756703
AvatarSid
Participant

Well, Fire was a bit of a challenge. It will also be a challenge to use the sfz.
The sound files are in Kontakt NCW format, so you will need to export them to WAV for Sforzando to use them.
1. download and unzip the kontakt version
2. load the instrument into the kontakt player and click the icon that looks like a floppy disk to save.
3. choose “save as…”
4. Give the name “Wav.nki” select “Patch+Samples” and uncheck “Compress Samples”

Now you will have a folder called “Wav Samples”. Put the code below in a text file outside of the “Wav Samples” folder.


/*
Title: Fire
Instrument: Field recordings of a small garden bonfire become a playable instrument
Using the stereo capsule on a Zoom H5, I made two field recordings of a small
garden bonfire, one from about two metres away and the other as close as I
could stand without burning myself. The gentle cracking of the fire became this
instrument's sustain and the snaps and pops became the attack.

Home
http://www.sfzformat.com/ https://plogue.com/products/sforzando.html Recorded by: Alexander Ling Terms of Use: https://www.pianobook.co.uk/terms Published on: Dec 15, 2020 =========================================== SFZ by Sid Has Intensity to crossfade two audio files per note (click the number to drag up or down). Has a band pass filter for Color. Has control for attack Length. No Splash (reverb) control except what is built into Sforzando. Place this SFZ file in the "Fire" folder outside of the samples folder. */ // Pianobook MVP SFZ Template V 2.5 <control> default_path=Wav Samples/ label_cc007=Master Volume label_cc010=Master Pan label_cc074=Color label_cc020=Intensity label_cc021=Length set_cc020=4 set_cc074=64 set_cc10=64 //Pan = 128*.5 (50%) or Centered <global> amplitude_oncc7=100 ampeg_attack=0.001 ampeg_attack_oncc21=1 ampeg_decay=0 ampeg_sustain=100 ampeg_release=0.6 ampeg_hold=0 ampeg_delay=0 off_shape=0 note_selfmask=off loop_mode=loop_continuous loop_start=10000 loop_end=762000 // band pass filter for color fil_type=bpf_1p cutoff=200 cutoff_cc074=9600 //========== Low Intensity Group ======================== <group> group=1 group_label=Low Intensity lovel=0 hivel=127 locc20=0 hicc20=127 xfout_locc20=0 xfout_hicc20=127 loop_start=10000 loop_end=590000 seq_length=8 <region> seq_position=1 sample=firecrackle_A3_0_99_RR1.wav hikey=60 lokey=0 pitch_keycenter=57 <region> seq_position=1 sample=firecrackle_E4_0_99_RR1.wav hikey=67 lokey=61 pitch_keycenter=64 <region> seq_position=1 sample=firecrackle_B4_0_99_RR1.wav hikey=74 lokey=68 pitch_keycenter=71 <region> seq_position=1 sample=firecrackle_F#5_0_99_RR1.wav hikey=81 lokey=75 pitch_keycenter=78 <region> seq_position=1 sample=firecrackle_C#6_0_99_RR1.wav hikey=88 lokey=82 pitch_keycenter=85 <region> seq_position=1 sample=firecrackle_G#6_0_99_RR1.wav hikey=100 lokey=89 pitch_keycenter=92 <region> seq_position=2 sample=firecrackle_A3_0_99_RR2.wav hikey=60 lokey=0 pitch_keycenter=57 <region> seq_position=2 sample=firecrackle_E4_0_99_RR2.wav hikey=67 lokey=61 pitch_keycenter=64 <region> seq_position=2 sample=firecrackle_B4_0_99_RR2.wav hikey=74 lokey=68 pitch_keycenter=71 <region> seq_position=2 sample=firecrackle_F#5_0_99_RR2.wav hikey=81 lokey=75 pitch_keycenter=78 <region> seq_position=2 sample=firecrackle_C#6_0_99_RR2.wav hikey=88 lokey=82 pitch_keycenter=85 <region> seq_position=2 sample=firecrackle_G#6_0_99_RR2.wav hikey=100 lokey=89 pitch_keycenter=92 <region> seq_position=3 sample=firecrackle_A3_0_99_RR3.wav hikey=60 lokey=0 pitch_keycenter=57 <region> seq_position=3 sample=firecrackle_E4_0_99_RR3.wav hikey=67 lokey=61 pitch_keycenter=64 <region> seq_position=3 sample=firecrackle_B4_0_99_RR3.wav hikey=74 lokey=68 pitch_keycenter=71 <region> seq_position=3 sample=firecrackle_F#5_0_99_RR3.wav hikey=81 lokey=75 pitch_keycenter=78 <region> seq_position=3 sample=firecrackle_C#6_0_99_RR3.wav hikey=88 lokey=82 pitch_keycenter=85 <region> seq_position=3 sample=firecrackle_G#6_0_99_RR3.wav hikey=100 lokey=89 pitch_keycenter=92 <region> seq_position=4 sample=firecrackle_A3_0_99_RR4.wav hikey=60 lokey=0 pitch_keycenter=57 <region> seq_position=4 sample=firecrackle_E4_0_99_RR4.wav hikey=67 lokey=61 pitch_keycenter=64 <region> seq_position=4 sample=firecrackle_B4_0_99_RR4.wav hikey=74 lokey=68 pitch_keycenter=71 <region> seq_position=4 sample=firecrackle_F#5_0_99_RR4.wav hikey=81 lokey=75 pitch_keycenter=78 <region> seq_position=4 sample=firecrackle_C#6_0_99_RR4.wav hikey=88 lokey=82 pitch_keycenter=85 <region> seq_position=4 sample=firecrackle_G#6_0_99_RR4.wav hikey=100 lokey=89 pitch_keycenter=92 <region> seq_position=5 sample=firecrackle_A3_0_99_RR5.wav hikey=60 lokey=0 pitch_keycenter=57 <region> seq_position=5 sample=firecrackle_E4_0_99_RR5.wav hikey=67 lokey=61 pitch_keycenter=64 <region> seq_position=5 sample=firecrackle_B4_0_99_RR5.wav hikey=74 lokey=68 pitch_keycenter=71 <region> seq_position=5 sample=firecrackle_F#5_0_99_RR5.wav hikey=81 lokey=75 pitch_keycenter=78 <region> seq_position=5 sample=firecrackle_C#6_0_99_RR5.wav hikey=88 lokey=82 pitch_keycenter=85 <region> seq_position=5 sample=firecrackle_G#6_0_99_RR5.wav hikey=100 lokey=89 pitch_keycenter=92 <region> seq_position=6 sample=firecrackle_A3_0_99_RR6.wav hikey=60 lokey=0 pitch_keycenter=57 <region> seq_position=6 sample=firecrackle_E4_0_99_RR6.wav hikey=67 lokey=61 pitch_keycenter=64 <region> seq_position=6 sample=firecrackle_B4_0_99_RR6.wav hikey=74 lokey=68 pitch_keycenter=71 <region> seq_position=6 sample=firecrackle_F#5_0_99_RR6.wav hikey=81 lokey=75 pitch_keycenter=78 <region> seq_position=6 sample=firecrackle_C#6_0_99_RR6.wav hikey=88 lokey=82 pitch_keycenter=85 <region> seq_position=6 sample=firecrackle_G#6_0_99_RR6.wav hikey=100 lokey=89 pitch_keycenter=92 <region> seq_position=7 sample=firecrackle_A3_0_99_RR7.wav hikey=60 lokey=0 pitch_keycenter=57 <region> seq_position=7 sample=firecrackle_E4_0_99_RR7.wav hikey=67 lokey=61 pitch_keycenter=64 <region> seq_position=7 sample=firecrackle_B4_0_99_RR7.wav hikey=74 lokey=68 pitch_keycenter=71 <region> seq_position=7 sample=firecrackle_F#5_0_99_RR7.wav hikey=81 lokey=75 pitch_keycenter=78 <region> seq_position=7 sample=firecrackle_C#6_0_99_RR7.wav hikey=88 lokey=82 pitch_keycenter=85 <region> seq_position=7 sample=firecrackle_G#6_0_99_RR7.wav hikey=100 lokey=89 pitch_keycenter=92 <region> seq_position=8 sample=firecrackle_A3_0_99_RR8.wav hikey=60 lokey=0 pitch_keycenter=57 <region> seq_position=8 sample=firecrackle_E4_0_99_RR8.wav hikey=67 lokey=61 pitch_keycenter=64 <region> seq_position=8 sample=firecrackle_B4_0_99_RR8.wav hikey=74 lokey=68 pitch_keycenter=71 <region> seq_position=8 sample=firecrackle_F#5_0_99_RR8.wav hikey=81 lokey=75 pitch_keycenter=78 <region> seq_position=8 sample=firecrackle_C#6_0_99_RR8.wav hikey=88 lokey=82 pitch_keycenter=85 <region> seq_position=8 sample=firecrackle_G#6_0_99_RR8.wav hikey=100 lokey=89 pitch_keycenter=92 //========== High Intensity Group ======================== <group> group=2 group_label=High Intensity lovel=0 hivel=127 locc20=0 hicc20=127 xfin_locc20=0 xfin_hicc20=127 loop_start=5000 loop_end=590000 seq_length=8 <region> seq_position=1 sample=firecrackle_A3_100_127_RR1.wav hikey=60 lokey=0 pitch_keycenter=57 <region> seq_position=1 sample=firecrackle_E4_100_127_RR1.wav hikey=67 lokey=61 pitch_keycenter=64 <region> seq_position=1 sample=firecrackle_B4_100_127_RR1.wav hikey=74 lokey=68 pitch_keycenter=71 <region> seq_position=1 sample=firecrackle_F#5_100_127_RR1.wav hikey=81 lokey=75 pitch_keycenter=78 <region> seq_position=1 sample=firecrackle_C#6_100_127_RR1.wav hikey=88 lokey=82 pitch_keycenter=85 <region> seq_position=1 sample=firecrackle_G#6_100_127_RR1.wav hikey=100 lokey=89 pitch_keycenter=92 <region> seq_position=2 sample=firecrackle_A3_100_127_RR2.wav hikey=60 lokey=0 pitch_keycenter=57 <region> seq_position=2 sample=firecrackle_E4_100_127_RR2.wav hikey=67 lokey=61 pitch_keycenter=64 <region> seq_position=2 sample=firecrackle_B4_100_127_RR2.wav hikey=74 lokey=68 pitch_keycenter=71 <region> seq_position=2 sample=firecrackle_F#5_100_127_RR2.wav hikey=81 lokey=75 pitch_keycenter=78 <region> seq_position=2 sample=firecrackle_C#6_100_127_RR2.wav hikey=88 lokey=82 pitch_keycenter=85 <region> seq_position=2 sample=firecrackle_G#6_100_127_RR2.wav hikey=100 lokey=89 pitch_keycenter=92 <region> seq_position=3 sample=firecrackle_A3_100_127_RR3.wav hikey=60 lokey=0 pitch_keycenter=57 <region> seq_position=3 sample=firecrackle_E4_100_127_RR3.wav hikey=67 lokey=61 pitch_keycenter=64 <region> seq_position=3 sample=firecrackle_B4_100_127_RR3.wav hikey=74 lokey=68 pitch_keycenter=71 <region> seq_position=3 sample=firecrackle_F#5_100_127_RR3.wav hikey=81 lokey=75 pitch_keycenter=78 <region> seq_position=3 sample=firecrackle_C#6_100_127_RR3.wav hikey=88 lokey=82 pitch_keycenter=85 <region> seq_position=3 sample=firecrackle_G#6_100_127_RR3.wav hikey=100 lokey=89 pitch_keycenter=92 <region> seq_position=4 sample=firecrackle_A3_100_127_RR4.wav hikey=60 lokey=0 pitch_keycenter=57 <region> seq_position=4 sample=firecrackle_E4_100_127_RR4.wav hikey=67 lokey=61 pitch_keycenter=64 <region> seq_position=4 sample=firecrackle_B4_100_127_RR4.wav hikey=74 lokey=68 pitch_keycenter=71 <region> seq_position=4 sample=firecrackle_F#5_100_127_RR4.wav hikey=81 lokey=75 pitch_keycenter=78 <region> seq_position=4 sample=firecrackle_C#6_100_127_RR4.wav hikey=88 lokey=82 pitch_keycenter=85 <region> seq_position=4 sample=firecrackle_G#6_100_127_RR4.wav hikey=100 lokey=89 pitch_keycenter=92 <region> seq_position=5 sample=firecrackle_A3_100_127_RR5.wav hikey=60 lokey=0 pitch_keycenter=57 <region> seq_position=5 sample=firecrackle_E4_100_127_RR5.wav hikey=67 lokey=61 pitch_keycenter=64 <region> seq_position=5 sample=firecrackle_B4_100_127_RR5.wav hikey=74 lokey=68 pitch_keycenter=71 <region> seq_position=5 sample=firecrackle_F#5_100_127_RR5.wav hikey=81 lokey=75 pitch_keycenter=78 <region> seq_position=5 sample=firecrackle_C#6_100_127_RR5.wav hikey=88 lokey=82 pitch_keycenter=85 <region> seq_position=5 sample=firecrackle_G#6_100_127_RR5.wav hikey=100 lokey=89 pitch_keycenter=92 <region> seq_position=6 sample=firecrackle_A3_100_127_RR6.wav hikey=60 lokey=0 pitch_keycenter=57 <region> seq_position=6 sample=firecrackle_E4_100_127_RR6.wav hikey=67 lokey=61 pitch_keycenter=64 <region> seq_position=6 sample=firecrackle_B4_100_127_RR6.wav hikey=74 lokey=68 pitch_keycenter=71 <region> seq_position=6 sample=firecrackle_F#5_100_127_RR6.wav hikey=81 lokey=75 pitch_keycenter=78 <region> seq_position=6 sample=firecrackle_C#6_100_127_RR6.wav hikey=88 lokey=82 pitch_keycenter=85 <region> seq_position=6 sample=firecrackle_G#6_100_127_RR6.wav hikey=100 lokey=89 pitch_keycenter=92 <region> seq_position=7 sample=firecrackle_A3_100_127_RR7.wav hikey=60 lokey=0 pitch_keycenter=57 <region> seq_position=7 sample=firecrackle_E4_100_127_RR7.wav hikey=67 lokey=61 pitch_keycenter=64 <region> seq_position=7 sample=firecrackle_B4_100_127_RR7.wav hikey=74 lokey=68 pitch_keycenter=71 <region> seq_position=7 sample=firecrackle_F#5_100_127_RR7.wav hikey=81 lokey=75 pitch_keycenter=78 <region> seq_position=7 sample=firecrackle_C#6_100_127_RR7.wav hikey=88 lokey=82 pitch_keycenter=85 <region> seq_position=7 sample=firecrackle_G#6_100_127_RR7.wav hikey=100 lokey=89 pitch_keycenter=92 <region> seq_position=8 sample=firecrackle_A3_100_127_RR8.wav hikey=60 lokey=0 pitch_keycenter=57 <region> seq_position=8 sample=firecrackle_E4_100_127_RR8.wav hikey=67 lokey=61 pitch_keycenter=64 <region> seq_position=8 sample=firecrackle_B4_100_127_RR8.wav hikey=74 lokey=68 pitch_keycenter=71 <region> seq_position=8 sample=firecrackle_F#5_100_127_RR8.wav hikey=81 lokey=75 pitch_keycenter=78 <region> seq_position=8 sample=firecrackle_C#6_100_127_RR8.wav hikey=88 lokey=82 pitch_keycenter=85 <region> seq_position=8 sample=firecrackle_G#6_100_127_RR8.wav hikey=100 lokey=89 pitch_keycenter=92

Follow Pianobook